Bangali Babu English Mem 2014 Full Movie Download

Ads
Ads

Info

General
Format : MPEG-PS
File size : 702 MiB
Duration : 2h 26mn
Overall bit rate mode : Variable
Overall bit rate : 670 Kbps

Video
ID : 224 (0xE0)
Format : MPEG Video
Format version : Version 2
Format profile : Main@Main
Format settings, BVOP : Yes
Format settings, Matrix : Custom
Format settings, GOP : Variable
Duration : 2h 26mn
Bit rate mode : Variable
Bit rate : 597 Kbps
Width : 352 pixels
Height : 288 pixels
Display aspect ratio : 4:3
Frame rate : 29.970 fps
Standard : PAL
Color space : YUV
Chroma subsampling : 4:2:0
Bit depth : 8 bits
Scan type : Progressive
Compression mode : Lossy
Bits/(Pixel*Frame) : 0.196
Stream size : 621 MiB (88%)

Audio
ID : 192 (0xC0)
Format : MPEG Audio
Format version : Version 1
Format profile : Layer 2
Duration : 2h 26mn
Bit rate mode : Constant
Bit rate : 64.0 Kbps
Channel(s) : 2 channels
Sampling rate : 48.0 KHz
Compression mode : Lossy
Stream size : 67.0 MiB (10%)

Bangali Babu English Mem 2014 Full Movie Download

Download Links

http://wallobit.com/g5vg5anowp9r.html
Or
http://www.putlocker.com/file/D4F7ADC123F5DB78
Or
http://www.arabloads.com/bmskybm18x9z
Or
http://davvas.com/0h6c0ogfh1pq
Or
http://uploadboy.com/o8zk51mouotk.html
Or
http://uptobox.com/jow9f25v08i0
Or
http://hugefiles.net/j4tqlr7ru50j

You May Also Like
Ads